Connexion

Forum

Logiciels » Graphisme photo et vidéo PB avec imagination

m@rco123 Membre non connecté

Rang

Avatar

Inscrit le : 15/05/2009 à 08h07

Localisation : Val d'Oise

Messages: 2892

Le 28/07/2019 à 18h36
Bonjour .
imagination Mageia 7
J'ai un diapo a faire et je pensais utiliser imagination.
Le pb: que que choisisse la sortie en vob 16/9 ou 4/3, c'est toujours du 16/9 !!!

la sortie en console :

Caché :
imagination %F
Gtk-Message: 18:29:25.743: Failed to load module "canberra-gtk-module"

(imagination:6268): GLib-GObject-CRITICAL **: 18:29:25.774: g_object_unref: assertion 'G_IS_OBJECT (object)' failed

(imagination:6268): GLib-GObject-CRITICAL **: 18:29:25.775: g_object_unref: assertion 'G_IS_OBJECT (object)' failed

(imagination:6268): GLib-GObject-CRITICAL **: 18:29:25.780: g_object_unref: assertion 'G_IS_OBJECT (object)' failed

(imagination:6268): GLib-GObject-CRITICAL **: 18:29:25.780: g_object_unref: assertion 'G_IS_OBJECT (object)' failed

en 16/9

ffmpeg version 4.1.4 Copyright (c) 2000-2019 the FFmpeg developers
built with gcc 8.3.1 (Mageia 8.3.1-0.20190524.1.mga7) 20190524
configuration: --prefix=/usr --enable-shared --enable-pic --libdir=/usr/lib64 --shlibdir=/usr/lib64 --incdir=/usr/include --disable-stripping --enable-postproc --enable-gpl --enable-pthreads --enable-libtheora --enable-libvorbis --disable-encoder=vorbis --enable-libvpx --enable-runtime-cpudetect --enable-libaom --enable-libdc1394 --enable-librtmp --enable-libspeex --enable-libfreetype --enable-libgsm --enable-libcelt --enable-libopus --enable-libopencv --enable-libopenjpeg --enable-libtwolame --enable-libxavs --enable-frei0r --enable-libmodplug --enable-libass --enable-gnutls --enable-libcdio --enable-libpulse --enable-libv4l2 --enable-avresample --enable-opencl --enable-libmp3lame --enable-sndio --enable-libdav1d --enable-libopencore-amrnb --enable-libopencore-amrwb --enable-version3 --enable-libx264 --enable-libx265 --enable-libvo-amrwbenc --enable-libxvid
libavutil 56. 22.100 / 56. 22.100
libavcodec 58. 35.100 / 58. 35.100
libavformat 58. 20.100 / 58. 20.100
libavdevice 58. 5.100 / 58. 5.100
libavfilter 7. 40.101 / 7. 40.101
libavresample 4. 0. 0 / 4. 0. 0
libswscale 5. 3.100 / 5. 3.100
libswresample 3. 3.100 / 3. 3.100
libpostproc 55. 3.100 / 55. 3.100
Input #0, image2pipe, from 'pipe:':
Duration: N/A, bitrate: N/A
Stream #0:0: Video: ppm, rgb24, 720x576, 25 fps, 25 tbr, 25 tbn, 25 tbc
Input #1, flac, from '/tmp/img_audio_fifo':
Duration: 00:03:42.07, start: 0.000000, bitrate: N/A
Stream #1:0: Audio: flac, 44100 Hz, stereo, s16
Stream mapping:
Stream #0:0 -> #0:0 (ppm (native) -> mpeg2video (native))
Stream #1:0 -> #0:1 (flac (native) -> ac3 (native))
[flac @ 0xee04c0] Thread message queue blocking; consider raising the thread_queue_size option (current value: 8)
Output #0, dvd, to '/home/marco/169.vob':
Metadata:
encoder : Lavf58.20.100
Stream #0:0: Video: mpeg2video (Main), yuv420p(progressive), 720x576 [SAR 36:5 DAR 9:1], q=2-31, 6000 kb/s, 25 fps, 90k tbn, 25 tbc
Metadata:
encoder : Lavc58.35.100 mpeg2video
Side data:
cpb: bitrate max/min/avg: 9000000/0/6000000 buffer size: 1835008 vbv_delay: -1
Stream #0:1: Audio: ac3, 48000 Hz, stereo, fltp (16 bit), 448 kb/s
Metadata:
encoder : Lavc58.35.100 ac3
frame= 779 fps= 44 q=2.7 Lsize= 8728kB time=00:00:31.09 bitrate=2299.1kbits/s speed=1.75x
video:6758kB audio:1701kB subtitle:0kB other streams:0kB global headers:0kB muxing overhead: 3.178890%
Exiting normally, received signal 2.

en 4/3

ffmpeg version 4.1.4 Copyright (c) 2000-2019 the FFmpeg developers
built with gcc 8.3.1 (Mageia 8.3.1-0.20190524.1.mga7) 20190524
configuration: --prefix=/usr --enable-shared --enable-pic --libdir=/usr/lib64 --shlibdir=/usr/lib64 --incdir=/usr/include --disable-stripping --enable-postproc --enable-gpl --enable-pthreads --enable-libtheora --enable-libvorbis --disable-encoder=vorbis --enable-libvpx --enable-runtime-cpudetect --enable-libaom --enable-libdc1394 --enable-librtmp --enable-libspeex --enable-libfreetype --enable-libgsm --enable-libcelt --enable-libopus --enable-libopencv --enable-libopenjpeg --enable-libtwolame --enable-libxavs --enable-frei0r --enable-libmodplug --enable-libass --enable-gnutls --enable-libcdio --enable-libpulse --enable-libv4l2 --enable-avresample --enable-opencl --enable-libmp3lame --enable-sndio --enable-libdav1d --enable-libopencore-amrnb --enable-libopencore-amrwb --enable-version3 --enable-libx264 --enable-libx265 --enable-libvo-amrwbenc --enable-libxvid
libavutil 56. 22.100 / 56. 22.100
libavcodec 58. 35.100 / 58. 35.100
libavformat 58. 20.100 / 58. 20.100
libavdevice 58. 5.100 / 58. 5.100
libavfilter 7. 40.101 / 7. 40.101
libavresample 4. 0. 0 / 4. 0. 0
libswscale 5. 3.100 / 5. 3.100
libswresample 3. 3.100 / 3. 3.100
libpostproc 55. 3.100 / 55. 3.100
Input #0, image2pipe, from 'pipe:':
Duration: N/A, bitrate: N/A
Stream #0:0: Video: ppm, rgb24, 720x576, 25 fps, 25 tbr, 25 tbn, 25 tbc
Input #1, flac, from '/tmp/img_audio_fifo':
Duration: 00:03:42.07, start: 0.000000, bitrate: N/A
Stream #1:0: Audio: flac, 44100 Hz, stereo, s16
Stream mapping:
Stream #0:0 -> #0:0 (ppm (native) -> mpeg2video (native))
Stream #1:0 -> #0:1 (flac (native) -> ac3 (native))
[flac @ 0x91a4c0] Thread message queue blocking; consider raising the thread_queue_size option (current value: 8)
Output #0, dvd, to '/home/marco/43.vob':
Metadata:
encoder : Lavf58.20.100
Stream #0:0: Video: mpeg2video (Main), yuv420p(progressive), 720x576 [SAR 12:5 DAR 3:1], q=2-31, 6000 kb/s, 25 fps, 90k tbn, 25 tbc
Metadata:
encoder : Lavc58.35.100 mpeg2video
Side data:
cpb: bitrate max/min/avg: 9000000/0/6000000 buffer size: 1835008 vbv_delay: -1
Stream #0:1: Audio: ac3, 48000 Hz, stereo, fltp (16 bit), 448 kb/s
Metadata:
encoder : Lavc58.35.100 ac3
frame= 449 fps= 44 q=2.3 Lsize= 4568kB time=00:00:17.91 bitrate=2088.9kbits/s speed=1.74x
video:3437kB audio:980kB subtitle:0kB other streams:0kB global headers:0kB muxing overhead: 3.427711%
Exiting normally, received signal 2.
Edité par m@rco123 Le 28/07/2019 à 19h02


Lenovo g70-70
cg intel 810 / ssd SanDisk 250Go
Mageia 7 plasma 64b

Packard Bell ls11hr
cg intel 810 / ssd SanDisk 128Go
Mageia 6 plasma 64b
   
m@rco123 Membre non connecté

Rang

Avatar

Inscrit le : 15/05/2009 à 08h07

Localisation : Val d'Oise

Messages: 2892

Le 29/07/2019 à 11h49
Bon, j'ai testé celui de M6 ( v 3.0 R1 ) et c'est ok !


Lenovo g70-70
cg intel 810 / ssd SanDisk 250Go
Mageia 7 plasma 64b

Packard Bell ls11hr
cg intel 810 / ssd SanDisk 128Go
Mageia 6 plasma 64b
   
david.david Membre non connecté

Rang

Avatar

Modérateur Équipe Mageia

Inscrit le : 11/02/2008 à 23h08

Localisation : Bernwiller, Haut-Rhin

Messages: 2622

Le 29/07/2019 à 16h21
Rien n'a changé entre la version de mga6 et celle de mga7.


ASUS K73S (portable) :
Intel Core i3-2350M_2.3GHz, 8 GO RAM DDR3, écran LED 17" (1600x900), CG Intel HD intégrée + CG Nvidia GeForce 610M_1GB dédiée (Technologie Optimus), SSD Samsung 850 EVO 250GB + SSD Samsung 850 EVO 500GB.

Mageia 7 - x86_64bits/ KDE Plasma-5.15.4 (DVD édition), c' est de la bombe, vive MAGEIA et toute l'équipe du STAFF MLO.
de david.david <david.david@mageialinux-online.org>
28281 .Venez nous rejoindre sur le salon IRC de MLO
   
m@rco123 Membre non connecté

Rang

Avatar

Inscrit le : 15/05/2009 à 08h07

Localisation : Val d'Oise

Messages: 2892

Le 29/07/2019 à 16h29
pourtant, sur m6 on est en 3.0 r1 et m7 en 3.0
Et c'est flagrant ... Je vais voir à approfondir


Lenovo g70-70
cg intel 810 / ssd SanDisk 250Go
Mageia 7 plasma 64b

Packard Bell ls11hr
cg intel 810 / ssd SanDisk 128Go
Mageia 6 plasma 64b
   
m@rco123 Membre non connecté

Rang

Avatar

Inscrit le : 15/05/2009 à 08h07

Localisation : Val d'Oise

Messages: 2892

Le 29/07/2019 à 18h09
screenshot_20190729_180015

pourtant flagrant !


Lenovo g70-70
cg intel 810 / ssd SanDisk 250Go
Mageia 7 plasma 64b

Packard Bell ls11hr
cg intel 810 / ssd SanDisk 128Go
Mageia 6 plasma 64b
   
Répondre
Vous n'êtes pas autorisé à écrire dans cette catégorie